发表新帖 回复这个主题  [ 4 篇帖子 ] 
MKV无损剪切出来的文件无法快进或拖动 
作者 内容

注册: 2010年 11月 13日 星期六 11:31 am
帖子: 2
 MKV无损剪切出来的文件无法快进或拖动
我只需要很简单的功能:无损剪切出mkv文件中自己喜欢的段落收藏。方法是:自定义起始、终止时间点,截取下载到的完整mkv文件的中间的一段。
先试了SplitIt_3.9.1555_gb,有如下问题,于是想:软件版本可能旧了所以有问题,就来论坛下载SplitIt_3.9.1700_gb,结果还是如下,一模一样,那就再换了PMC_3.9.1939_gb,问题照旧,一模一样的问题:
下载到的完整mkv文件用KMPlayer和VLC播放器都是正常播放、拖动,没有延迟、色块、卡顿等任何问题,用上述3个不同版本的软件“直接剪切”,剪切出来的mkv,能正常播放,都是不能拖动也不能快进,拖动、快进时,画面就长时间定格在拖动、快进时那一帧,视乎剪切出来的mkv大小,声音会在3~10多秒后从拖动到的位置处重新响起,画面任你怎么等都始终定格着不动了。上述是用KMPlayer的播放情况,用VLC时稍微好一点,可以拖动、快进,但是每次拖动、快进时,画面都出现花屏一样的色块,几秒后消失恢复正常画面(消失快慢与剪切出来的mkv大小有关)。

这样的剪切是完全失败的、不可接受的。
事先安装了K-Lite_Codec_Pack_650_Full.exe解码器。
看了论坛,没有针对的解决办法,试了安装Avisynth_2.5.8.exe,没有任何作用,试了把剪切出来的mkv再用软件修复,也没任何作用,用软件播放也是上述情况,而且更糟,一拖动就完全卡死,而原文件在软件里播放、拖动没有任何问题。
不得已求助!请支招。很喜欢你们的软件,功能很好,软字幕都能相应剪切出来,比Avidemux 好用,但是目前剪切的结果却是失望的,非常希望能够得到解决!多谢了!
下面是我剪切的文件名称和文件信息:
魔法保姆麦克菲2.Nanny.McPhee.the.Big.Bang.2010.BD.MiniSD-TLF.mkv 761MB
欲望都市Sex And The City.2008.BDRip.X264.AC3-TLF.mkv 2.04GB
Life 2009 BBC BluRay 720p x264-sailo1系列中的Life S01E04 Fish.mkv 1.80GB

电脑是HP笔记本,Intel Core Duo P7450 2.13GHz, 2G RAM, Windows 7旗舰版 32位


2010年 11月 13日 星期六 12:30 pm
用户资料 发送Email
Site Admin

注册: 2008年 11月 12日 星期三 10:48 am
帖子: 190
帖子 Re: MKV无损剪切出来的文件无法快进或拖动
这个与格式本身有关系,请检查一下具体影音编码格式。也可以把输出格式转为一种试剂的格式,来进行转换切割。


2010年 11月 27日 星期六 10:38 am
用户资料 发送Email

注册: 2010年 11月 13日 星期六 11:31 am
帖子: 2
帖子 Re: MKV无损剪切出来的文件无法快进或拖动
非常感谢回复!
1.格式本身是没有任何问题的,因为我不是试着分割仅仅某一个文件,而是好几十个文件都有问题,就没有成功的。mkv有许多是TLF小组做的,他们压缩出来的mkv质量绝对有保证,具体影音编码格式都是标准的、最常见普通的,即便是每个mkv参数设置不同,那也不会至于贵软件剪切每个mkv得出来的段落个个都失败。如果常看电影的人看到TLF小组这一名称没有不熟悉,他们压制的mkv都是可以广泛应用的文件,而不是某些网站发布的只针对手机播放的、只针对iPhone播放的视频文件,所以最具有代表性,更不会让人怀疑TLF的mkv格式有问题。

2.把输出格式转为一种试剂的格式,来进行转换切割。试剂的格式?自以为很懂视频,但今天第一次听到这个名词,不知为何物?另:看到“转为”二字,似乎是要转换?如果这样的话,无损剪切就失去了剪切在时间和质量上的意义,这是无法接受的。

下面给出一个其中一个mkv文件的详细信息如下:
欲望都市Sex And The City.2008.BDRip.X264.AC3-TLF.mkv
General
Complete name : E:\欲望都市Sex And The City.2008.BDRip.X264.AC3-TLF.mkv
Format : Matroska
File size : 2.05 GiB
Duration : 2h 30mn
Overall bit rate : 1 943 Kbps
Encoded date : UTC 2008-09-29 23:25:22
Writing application : mkvmerge v2.3.0 ('Freak U') built on Sep 8 2008 18:32:16
Writing library : libebml v0.7.7 + libmatroska v0.8.1
Video #1
ID : 1
Format : AVC
Format/Info : Advanced Video Codec
Format profile : High@L3.1
Format settings, CABAC : Yes
Format settings, ReFrames : 10 frames
Muxing mode : Container profile=Unknown@3.1
Codec ID : V_MPEG4/ISO/AVC
Duration : 2h 30mn
Bit rate : 1 520 Kbps
Nominal bit rate : 1 556 Kbps
Width : 880 pixels
Height : 496 pixels
Display aspect ratio : 16:9
Frame rate : 23.976 fps
Resolution : 24 bits
Colorimetry : 4:2:0
Scan type : Progressive
Bits/(Pixel*Frame) : 0.145
Stream size : 1.60 GiB (78%)
Writing library : x264 core 64 r987M e71168d
Encoding settings : cabac=1 / ref=10 / deblock=1:-2:-1 / analyse=0x3:0x113 / me=umh / subme=6 / psy_rd=1.0:0.0 / brdo=1 / mixed_ref=1 / me_range=16 / chroma_me=1 / trellis=2 / 8x8dct=1 / cqm=0 / deadzone=21,11 / chroma_qp_offset=-2 / threads=2 / nr=0 / decimate=0 / mbaff=0 / bframes=16 / b_pyramid=1 / b_adapt=1 / b_bias=0 / direct=3 / wpredb=1 / bime=1 / keyint=240 / keyint_min=24 / scenecut=40(pre) / rc=2pass / bitrate=1556 / ratetol=1.0 / qcomp=0.60 / qpmin=10 / qpmax=51 / qpstep=4 / cplxblur=20.0 / qblur=0.5 / ip_ratio=1.40 / pb_ratio=1.30 / aq=1:1.00
Language : English
Audio #2
ID : 2
Format : AC-3
Format/Info : Audio Coding 3
Codec ID : A_AC3
Duration : 2h 30mn
Bit rate mode : Constant
Bit rate : 384 Kbps
Channel(s) : 6 channels
Channel positions : Front: L C R, Surround: L R, LFE
Sampling rate : 48.0 KHz
Stream size : 414 MiB (20%)


2010年 11月 27日 星期六 8:35 pm
用户资料 发送Email
Site Admin

注册: 2008年 11月 12日 星期三 10:48 am
帖子: 190
---------
帖子 Re: MKV无损剪切出来的文件无法快进或拖动
你好,

1、直接切割 mkv 是调用 mkvmerge 进行处理的,一些制作组使用一些更复杂(也可以说更新的)的参数以转换时间换取转换质量,因此可能导致了 mkvmerge 处理问题,这其实就是一个矛与盾的故事。你可以尝试切割一些别家制作的 mkv 文件看看是不是有同样的问题(即测试不同压缩参数输出的 mkv 格式文件)。显而意见,在追求高质量压缩而使用复杂压缩参数的文件里,遇到问题的概率明显更多一些。
2、错别字,应该为:将输出格式转换一种实际的格式,比如 MP4 这样。软件提供了双模式处理,即可以直接容器快速处理,或者转换切割模式。


2010年 12月 21日 星期二 10:55 pm
用户资料 发送Email
显示帖子 :  排序  
发表新帖 回复这个主题  [ 4 篇帖子 ] 


在线用户

正在浏览此版面的用户:没有注册用户 和 1 位游客


不能 在这个版面发表主题
不能 在这个版面回复主题
不能 在这个版面编辑帖子
不能 在这个版面删除帖子
不能 在这个版面提交附件

查找:
前往 :  
cron