发表新帖 回复这个主题  [ 2 篇帖子 ] 
裁剪问题 
作者 内容

注册: 2010年 11月 15日 星期一 6:05 pm
帖子: 1
帖子 裁剪问题
有个影片,格式如下,附件,一直用的标准设置,什么都不改变,裁剪下来,时间会变为156分钟,是什么问题?
Format : MPEG-4
Format profile : Base Media
Codec ID : isom
File size : 1.00 GiB
Duration : 2h 7mn
Overall bit rate : 1 127 Kbps
Encoded date : UTC 2010-11-03 18:00:21
Tagged date : UTC 2010-11-03 18:00:21

Video
ID : 1
Format : AVC
Format/Info : Advanced Video Codec
Format profile : High@L3.0
Format settings, CABAC : No
Format settings, ReFrames : 1 frame
Codec ID : avc1
Codec ID/Info : Advanced Video Coding
Duration : 2h 7mn
Bit rate mode : Constant
Bit rate : 1 000 Kbps
Width : 720 pixels
Height : 396 pixels
Display aspect ratio : 16:9
Frame rate mode : Constant
Frame rate : 29.970 fps
Standard : NTSC
Color space : YUV
Chroma subsampling : 4:2:0
Bit depth : 8 bits
Scan type : Progressive
Bits/(Pixel*Frame) : 0.117
Stream size : 910 MiB (88%)
Language : English
Encoded date : UTC 2010-11-03 18:00:21
Tagged date : UTC 2010-11-03 18:00:21
Color primaries : BT.601-6 525, BT.1358 525, BT.1700 NTSC, SMPTE 170M
Transfer characteristics : BT.601-6 525, BT.601-6 625, BT.1358 525, BT.1358 625, BT.1700 NTSC, SMPTE 170M
Matrix coefficients : BT.601-6 525, BT.1358 525, BT.1700 NTSC, SMPTE 170M

Audio
ID : 2
Format : AAC
Format/Info : Advanced Audio Codec
Format version : Version 4
Format profile : LC
Codec ID : 40
Duration : 2h 7mn
Bit rate mode : Constant
Bit rate : 127 Kbps
Channel(s) : 2 channels
Channel positions : Front: L R
Sampling rate : 48.0 KHz
Stream size : 116 MiB (11%)
Language : English
Encoded date : UTC 2010-11-03 18:00:21
Tagged date : UTC 2010-11-03 18:00:21


2010年 11月 15日 星期一 6:10 pm
用户资料 发送Email
Site Admin

注册: 2008年 11月 12日 星期三 10:48 am
帖子: 190
---------
帖子 Re: 裁剪问题
在直接切割遇到问题时,可以尝试使用一下转换切割。方法为:将输出格式切换到一个实际的格式,比如 MP4。


2010年 11月 27日 星期六 10:41 am
用户资料 发送Email
显示帖子 :  排序  
发表新帖 回复这个主题  [ 2 篇帖子 ] 


在线用户

正在浏览此版面的用户:没有注册用户 和 1 位游客


不能 在这个版面发表主题
不能 在这个版面回复主题
不能 在这个版面编辑帖子
不能 在这个版面删除帖子
不能 在这个版面提交附件

查找:
前往 :  
cron