发表新帖 回复这个主题  [ 2 篇帖子 ] 
裁减遇到问题 
作者 内容

注册: 2011年 8月 15日 星期一 11:48 pm
帖子: 3
帖子 裁减遇到问题
D:\Administrator\Videos\gachi365.[移动影音转换专家].avi
General
Complete name : D:\Administrator\Videos\gachi365.[移动影音转换专家].avi
Format : AVI
Format/Info : Audio Video Interleave
File size : 329 MiB
Duration : 1h 4mn
Overall bit rate : 713 Kbps
Writing application : Lavf53.4.0
Video #0
ID : 0
Format : MPEG-4 Visual
Format profile : Advanced Simple@L5
Format settings, BVOP : No
Format settings, QPel : No
Format settings, GMC : No warppoints
Format settings, Matrix : Default (H.263)
Codec ID : XVID
Codec ID/Hint : XviD
Duration : 23mn 6s
Bit rate : 1 603 Kbps
Width : 720 pixels
Height : 404 pixels
Display aspect ratio : 16:9
Frame rate : 29.970 fps
Color space : YUV
Chroma subsampling : 4:2:0
Bit depth : 8 bits
Scan type : Progressive
Compression mode : Lossy
Bits/(Pixel*Frame) : 0.184
Stream size : 265 MiB (81%)
Writing library : XviD 1.2.1 (UTC 2008-12-04)
Audio #1
ID : 1
Format : MPEG Audio
Format version : Version 1
Format profile : Layer 3
Codec ID : 55
Codec ID/Hint : MP3
Duration : 1h 4mn
Bit rate mode : Constant
Bit rate : 128 Kbps
Channel(s) : 2 channels
Sampling rate : 48.0 KHz
Compression mode : Lossy
Stream size : 59.0 MiB (18%)
Alignment : Aligned on interleaves
Interleave, duration : 9 ms (0.26 video frame)
Interleave, preload duration : 2479728 ms
Writing library : LAMELAME_MAJOR_VERSI


裁剪过后,声音不同步耶!用其他软件没问题。


2011年 8月 15日 星期一 11:55 pm
用户资料 发送Email
Site Admin

注册: 2008年 11月 12日 星期三 10:48 am
帖子: 190
---------
帖子 Re: 裁减遇到问题
遇到此类问题,把输出格式切换到一个格式进行转换切割,比如 XviD


2011年 8月 16日 星期二 12:40 pm
用户资料 发送Email
显示帖子 :  排序  
发表新帖 回复这个主题  [ 2 篇帖子 ] 


在线用户

正在浏览此版面的用户:没有注册用户 和 0 位游客


不能 在这个版面发表主题
不能 在这个版面回复主题
不能 在这个版面编辑帖子
不能 在这个版面删除帖子
不能 在这个版面提交附件

查找:
前往 :  
cron